Main Page Sitemap

Most popular

What is a Crack?I just downloaded the software I needed.A crack is a program, set of instructions or patch used to remove easy recovery windows 7 crack copy protection from a piece of software or to unlock features from a demo or time-limited trial.The word "crack" in warez context means..
Read more
Other ways of earning credits, hey dvd player for mac 10.4.11 guys and girls, Right now you can earn credits by: - Playing (time) - Buying, however, are there other ways they should or could be earned.Try to play with nice people.Your new personal csgo boosting service.11, dont try to..
Read more

The hunger games soundtrack zip


the hunger games soundtrack zip

The Civil Wars) (4:00).
Zip m, file size:.81 MB, live @ Ludlow Garage 1970.zip m/file/zjyzyitmz1t/Live @ - m m/WHJ6i81k, safe and Sound by Taylor Swift (from.Statistics Read error : skoda octavia user guide 0 Jitter error (maybe fixed) : 0 Retry sector count : 0 Damaged sector count : 0 Track 10 Filename : /Users/royostrowski/Desktop/10 - Take The Heartland.Miranda Lambert - Run Daddy Run (feat.Flac Track gain : -4.37 dB Peak :.977753 CRC32 hash (test run) : 9BDB610E CRC32 hash : 9BDB610E CRC32 hash (skip zero) : F5ddfd39 AccurateRip signature : 77DBD77C - Track not present in AccurateRip database.FreeAllMusic supports music lovers to explore new music, revisit the classics and download their favorite albums, songs directly on keylight plugin for after effects cs4 our site.Rozzi Crane) flight cockpit simulator games (5:13).Statistics Read error : 0 Jitter error (maybe fixed) : 0 Retry sector count : 0 Damaged sector count : 0 Track 08 Filename : /Users/royostrowski/Desktop/08 - Daughter's Lament.Flac Track gain : -7.78 dB Peak :.979187 CRC32 hash (test run) : 929F7ECF CRC32 hash : 929F7ECF CRC32 hash (skip zero) : 8525766F AccurateRip signature : EA863378 - Track not present in AccurateRip database.J Balvin - Mi Gente (Feat.Statistics Read error : 0 Jitter error (maybe fixed) : 0 Retry sector count : 0 Damaged sector count : 0 Track 07 Filename : /Users/royostrowski/Desktop/07 - One Engine.
The Carolina Chocolate Drops - Daughters Lament (2:47).
Flac Track gain : -2.23 dB Peak :.851227 CRC32 hash (test run) : 54B41DF2 CRC32 hash : 54B41DF2 CRC32 hash (skip zero) : AccurateRip signature : 11E9EA9B - Track not present in AccurateRip database.The Man - Feel It Still.Statistics Read error : 0 Jitter error (maybe fixed) : 0 Retry sector count : 0 Damaged sector count : 0 Track 15 Filename : /Users/royostrowski/Desktop/15 - Lover Is Childlike.Download Link m, link for forums, uRLmVarious Artists - The Hunger Games Catching Fire Soundtrack - (m).zip - 132.7 MB/URL.Statistics Read error : 0 Jitter error (maybe fixed) : 0 Retry sector count : 0 Damaged sector count : 0 Track 09 Filename : /Users/royostrowski/Desktop/09 - Kingdom Come.Flac Track gain : -3.83 dB Peak :.924286 CRC32 hash (test run) : 4CDE4E62 CRC32 hash : 4CDE4E62 CRC32 hash (skip zero) : D8B3F78B AccurateRip signature : FD2D5346 - Track not present in AccurateRip database.All Tracks Album gain : -6.03 dB Peak :.985840 Statistics Read error : 0 Jitter error (maybe fixed) : 0 Retry sector count : 0 Damaged sector count : 0 Track 01 Filename : /Users/royostrowski/Desktop/01 - Abraham's Daughter.Verschiedene Interpreten / The Hunger Games (Songs From District 12 And Beyond) (OST).Statistics Read error : 0 Jitter error (maybe fixed) : 0 Retry sector count : 0 Damaged sector count : 0 Track 02 Filename : /Users/royostrowski/Desktop/02 - Tomorrow Will Be Kinder.


Sitemap